Тестирование видеохостингов

Безусловно видеохостинг №1 — это YouTube. Но система Content ID довольно сильно выпиливает залитые мною ролики. Поэтому решил изучить альтернативы.
В первую очередь интересовало качество загруженного видео. Во вторую — способы загрузки и публикации.

На все основные видеохостинги был загружен файл со следующими характеристиками:

General
Format : AVI
Format/Info : Audio Video Interleave
File size : 24.2 MiB
Duration : 28s 570ms
Overall bit rate : 7 120 Kbps
Video #0
Format : MPEG-4 Visual
Format profile : Advanced [email protected]
Format settings, BVOP : Yes
Format settings, QPel : No
Format settings, GMC : No warppoints
Format settings, Matrix : Default (MPEG)
Codec ID : XVID
Codec ID/Hint : XviD
Duration : 28s 570ms
Bit rate : 6 659 Kbps
Width : 720 pixels
Height : 304 pixels
Display aspect ratio : 2.35:1
Frame rate : 23.976 fps
Resolution : 8 bits
Colorimetry : 4:2:0
Scan type : Progressive
Bits/(Pixel*Frame) : 1.269
Stream size : 22.7 MiB (94%)
Writing library : XviD 1.2.0.dev47 (UTC 2006-11-01)
Audio #1
ID : 1
Format : AC-3
Format/Info : Audio Coding 3
Codec ID : 2000
Duration : 28s 570ms
Bit rate mode : Constant
Bit rate : 448 Kbps
Channel(s) : 6 channels
Channel positions : Front: L C R, Surround: L R, LFE
Sampling rate : 48.0 KHz
Video delay : 4ms
Stream size : 1.53 MiB (6%)
Alignment : Split across interleaves
Interleave, duration : 42 ms (1.01 video frame)
Interleave, preload duration : 500 ms

Vimeo
Особых замечаний нет. Качество отличное.

General
Format : MPEG-4
Codec ID : isom
File size : 2.45 MiB
Overall bit rate : 716 Kbps
Video #1
Format : AVC
Format/Info : Advanced Video Codec
Format profile : [email protected]
Format settings, CABAC : Yes
Format settings, ReFrames : 4 frames
Codec ID : avc1
Codec ID/Info : Advanced Video Coding
Bit rate mode : Variable
Bit rate : 605 Kbps
Nominal bit rate : 600 Kbps
Maximum bit rate : 1 105 Kbps
Width : 640 pixels
Height : 272 pixels
Display aspect ratio : 2.35:1
Frame rate mode : Constant
Frame rate : 23.976 fps
Resolution : 8 bits
Colorimetry : 4:2:0
Scan type : Progressive
Bits/(Pixel*Frame) : 0.145
Stream size : 2.06 MiB (84%)
Writing library : x264 core 72 r1217 5e9ae4c
Audio #2
Format : AAC
Format/Info : Advanced Audio Codec
Format version : Version 4
Format profile : LC
Format settings, SBR : No
Codec ID : 40
Bit rate mode : Variable
Bit rate : 110 Kbps
Maximum bit rate : 122 Kbps
Channel(s) : 2 channels
Channel positions : L R
Sampling rate : 44.1 KHz
Resolution : 16 bits
Stream size : 383 KiB (15%)


http://www.vimeo.com / 10806326

Dailymotion
Второй по посещаемости после YouTube. Качество посредственное.

General
Format : MPEG-4
Format profile : Base Media / Version 2
Codec ID : mp42
File size : 1.55 MiB
Overall bit rate : 456 Kbps
vbit : 357
Video #1
Format : AVC
Format/Info : Advanced Video Codec
Format profile : [email protected]
Format settings, CABAC : No
Format settings, ReFrames : 3 frames
Codec ID : avc1
Codec ID/Info : Advanced Video Coding
Bit rate mode : Variable
Bit rate : 358 Kbps
Width : 512 pixels
Height : 224 pixels
Display aspect ratio : 2.25:1
Original display aspect ratio : 2.35:1
Frame rate mode : Variable
Frame rate : 23.976 fps
Minimum frame rate : 23.974 fps
Maximum frame rate : 23.981 fps
Resolution : 8 bits
Colorimetry : 4:2:0
Scan type : Progressive
Bits/(Pixel*Frame) : 0.130
Stream size : 1.22 MiB (79%)
Audio #2
Format : AAC
Format/Info : Advanced Audio Codec
Format version : Version 4
Format profile : LC
Format settings, SBR : No
Codec ID : 40
Bit rate mode : Variable
Bit rate : 93.7 Kbps
Maximum bit rate : 101 Kbps
Channel(s) : 2 channels
Channel positions : L R
Sampling rate : 44.1 KHz
Resolution : 16 bits
Stream size : 326 KiB (21%)


http://www.dailymotion.com / video / xcw1pm_despero_shortfilms

RuTube
Тоже лидер, только рунета. Качество хорошее. Скачать файл так и не удалось — подробности не выяснены. Наличие навязчивой рекламы, в том числе и с сиськами. Не зачёт.


http://rutube.ru/tracks/3123974.html?v=cf18afcc96e40e17e865f308f91fb8d5

blip.tv — не справился с AC-3 кодеком — незачёт.
http://blip.tv / file / 3462841

smotri.com — ужасное качество H.263 кодека.
http://smotri.com/video/view/?id=u1570260f227

sevenload.com — снова злосчастный H.263 кодек, положение не спасает высокий битрейт и низкое разрешение.
http://ru.sevenload.com/videos/ytBub0E-Despero

Rambler Vision — H.263 кодек, старинный плеер.
http://vision.rambler.ru/users/berillxvi/1/1/

Яндекс.Видео
Можно выбрать качество воспроизводимого видео. Для лучшего параметры такие:

General
Format : Flash Video
File size : 3.69 MiB
Overall bit rate : 1 076 Kbps
Video
Format : AVC
Format/Info : Advanced Video Codec
Format profile : [email protected]
Format settings, CABAC : Yes
Format settings, ReFrames : 5 frames
Muxing mode : Container [email protected]
Bit rate : 882 Kbps
Nominal bit rate : 768 Kbps
Width : 720 pixels
Height : 304 pixels
Display aspect ratio : 2.35:1
Frame rate mode : Variable
Frame rate : 23.000 fps
Resolution : 8 bits
Colorimetry : 4:2:0
Scan type : Progressive
Bits/(Pixel*Frame) : 0.175
Stream size : 3.01 MiB (82%)
Writing library : x264 core 88
Audio
Format : MPEG Audio
Format version : Version 1
Format profile : Layer 3
Format_Settings_Mode : Joint stereo / MS Stereo
Bit rate mode : Constant
Bit rate : 192 Kbps
Channel(s) : 2 channels
Sampling rate : 44.1 KHz
Resolution : 16 bits
Video delay : 84ms
Stream size : 686 KiB (18%)

Удивляет использование устарешего аудио кодека.


http://video.yandex.ru/users/berillxvi/view/1/

Видео@Mail.Ru
Также можно выбрать качество видеопотока. В «лёгком» варианте — кодек H.263. В более качественном параметры следующие:

General
Format : MPEG-4
Format profile : QuickTime
Codec ID : qt
File size : 5.46 MiB
Overall bit rate : 1 603 Kbps
Video #1
Format : AVC
Format/Info : Advanced Video Codec
Format profile : [email protected]
Format settings, CABAC : No
Format settings, ReFrames : 1 frame
Codec ID : avc1
Codec ID/Info : Advanced Video Coding
Bit rate mode : Variable
Bit rate : 1 405 Kbps
Width : 720 pixels
Height : 304 pixels
Display aspect ratio : 2.35:1
Frame rate mode : Constant
Frame rate : 23.976 fps
Resolution : 8 bits
Colorimetry : 4:2:0
Scan type : Progressive
Bits/(Pixel*Frame) : 0.268
Stream size : 4.79 MiB (88%)
Audio #2
Format : AAC
Format/Info : Advanced Audio Codec
Format version : Version 4
Format profile : LC
Format settings, SBR : No
Codec ID : 40
Bit rate mode : Variable
Bit rate : 192 Kbps
Channel(s) : 6 channels
Channel positions : Front: L C R, Rear: L R, LFE
Sampling rate : 48.0 KHz
Resolution : 16 bits
Stream size : 671 KiB (12%)

И здесь странности — оставлен многоканальный звук.


http://video.mail.ru/mail/berillxvi/_myvideo/1.html

YouTube
Предложил сразу 3 варианта качества. Для лучшего такие параметры:

General
Format : Flash Video
File size : 3.13 MiB
Duration : 29s 25ms
Overall bit rate : 905 Kbps
Video
Format : AVC
Format/Info : Advanced Video Codec
Format profile : [email protected]
Format settings, CABAC : Yes
Format settings, ReFrames : 3 frames
Bit rate : 805 Kbps
Width : 720 pixels
Height : 304 pixels
Display aspect ratio : 2.35:1
Frame rate : 24.000 fps
Original frame rate : 23.976 fps
Resolution : 8 bits
Colorimetry : 4:2:0
Scan type : Progressive
Bits/(Pixel*Frame) : 0.153
Stream size : 2.78 MiB (89%)
Audio
Format : AAC
Format/Info : Advanced Audio Codec
Format version : Version 4
Format profile : LC
Format settings, SBR : No
Bit rate : 107 Kbps
Channel(s) : 2 channels
Channel positions : L R
Sampling rate : 44.1 KHz
Resolution : 16 bits
Stream size : 380 KiB (12%)


http://www.youtube.com / watch?v=_vJyFdXbfJA

Качество каждый может оценить сам по приведенным ниже скриншотам:
Оригинал:
original

Vimeo:
vimeo

Yandex:
yandex

Mail.ru
mail

Youtube
youtube